User: Hasło:
Stwórz konto Odzyskiwanie hasła
               
Menu Główne
Wstaw Pozycje
Forum
Wsparcie
Wyloguj


Kategorie
Wyborcze jaja - The Campaign 2012 [AC3] [DVDRip] [XviD-torentup] [Lektor PL]


Kategoria: Filmy DivX/XviD

Gatunek: Komedia

Wstawił: torentup
Data dodania: 
11-01-2017
Rozmiar: 1.17 GB

Seedów: 7
Peerów: 18
Ukończone: 8

Pobrany: 11

Kondycja:

Pobierz

=====================
INFO
================

Reżyseria: Jay Roach
Scenariusz: Chris Henchy, Shawn Harwell
Premiera światowa: 9 sierpnia 2012
Produkcja: USA
Gatunek: Komedia

=====================
OPIS
====================

Doświadczony kongresman Cam Brady (Will Ferrell)  po wielkiej publicznej gafie popełnionej przed nadchodzącymi wyborami  musi konkurować z kandydatem wystawionym przez parę knujących, bardzo zamożnych prezesów zainteresowanych zdobyciem wpływów w Karolinie Północnej. Ich wybór padł na naiwnego Marty'ego Hugginsa (Zach Galifianakis), kierownika lokalnego ośrodka turystycznego. Walka obu kandydatów przeradza się w polityczną wojnę, jakiej świat jeszcze nie widział. Jej uczestnicy nie przebierają w środkach  obrzucają się błotem, wbijają przeciwnikowi nóż w plecy i rozbijają rodziny. Nawet kiedy wydaje się, że twórcy kampanii porzucili już wszelkie zasady moralne, okazuje się, że zawsze mogą stoczyć się jeszcze niżej.

=====================
OBSADA
====================

Will Ferrell....Cam Brady
Zach Galifianakis....Marty Huggins
Sarah Baker....Mitzi Huggins
Dylan McDermott....Tim Wattley
Jason Sudeikis....Mitch
Katherine LaNasa....Rose Brady
Brian Cox....Raymond Huggins
Billy Slaughter....Dermot

=====================
DANE TECHNICZNE
=====================

Format                         : AVI
Format/Info                    : Audio Video Interleave
File size                      : 1.17 GiB
Duration                       : 1h 25mn
Overall bit rate               : 1 952 Kbps

Video
ID                             : 0
Format                         : MPEG-4 Visual
Format profile                 : Advanced Simple@L5
Format settings, BVOP          : 2
Format settings, QPel          : No
Format settings, GMC           : No warppoints
Format settings, Matrix        : Default (H.263)
Codec ID                       : XVID
Codec ID/Hint                  : XviD
Duration                       : 1h 25mn
Bit rate                       : 1 554 Kbps
Width                          : 720 pixels
Height                         : 400 pixels
Display aspect ratio           : 16:9
Frame rate                     : 23.976 fps
Color space                    : YUV
Chroma subsampling             : 4:2:0
Bit depth                      : 8 bits
Scan type                      : Progressive
Compression mode               : Lossy
Bits/(Pixel*Frame)             : 0.225
Stream size                    : 950 MiB (80%)
Writing library                : XviD 64

Audio
ID                             : 1
Format                         : AC-3
Format/Info                    : Audio Coding 3
Mode extension                 : CM (complete main)
Format settings, Endianness    : Big
Codec ID                       : 2000
Duration                       : 1h 25mn
Source duration                : 1h 25mn
Bit rate mode                  : Constant
Bit rate                       : 384 Kbps
Channel(s)                     : 6 channels
Channel positions              : Front: L C R, Side: L R, LFE
Sampling rate                  : 48.0 KHz
Bit depth                      : 16 bits
Compression mode               : Lossy
Stream size                    : 235 MiB (20%)
Alignment                      : Aligned on interleaves
Interleave, duration           : 32 ms (0.77 video frame)

Pliki
 [Pokaż/ukryj Pliki]
(3) files
Ocena N/A
Tracker
 [Pokaż/ukryj Trackery] 
Podobne
Nie znaleziono podobnych tytułów!

Komentarze


Brak Komentarzy!!!


Wstecz


POPULARNE TORRENTY
[Filmy » Filmy DivX/XviD]
Kolekcjoner - The Collection...
[Muzyka » Muzyka Polska]
RAZ, DWA, TRZY - MŁYNARSKI (...
[Muzyka » Muzyka Polska]
RAZ, DWA, TRZY - CZY TE OCZY...
[Muzyka » Muzyka Polska]
KOMBAJN DO ZBIERANIA KUR PO ...
[Filmy » Filmy DivX/XviD]
Milczenie / Silence *2016* [...
[Muzyka » Muzyka Polska]
KULT - Discography *1987 - 2...
[Dla Dzieci » Bajki Pl/Eng]
SpongeBob Kanciastoporty [S0...
[Dla Dzieci » Bajki Pl/Eng]
SpongeBob Kanciastoporty [S0...
[Dla Dzieci » Bajki Pl/Eng]
SpongeBob Kanciastoporty [S0...
[Dla Dzieci » Bajki Pl/Eng]
SpongeBob Kanciastoporty [S0...

Premiery

Premiery
[Filmy » Filmy DivX/XviD]
Iluzja 2 - Now You See Me 2 ...
[Filmy » Filmy DivX/XviD]
Iluzja 2 - Now You See Me 2 ...
[Filmy » Filmy DivX/XviD]
Iluzja 2 - Now You See Me 2 ...
[Filmy » Filmy DivX/XviD]
Dark Was the Night *2014* [B...
[Filmy » Filmy DivX/XviD]
Star Trek: W nieznane - Star...

OSTATNIE KOMENTARZE
 Święty / The Saint *
Napisał: WEZYR156
 RAZ, DWA, TRZY - PRZ
Napisał: Fallen_Angel
 MAYHEM - DE MYSTERII
Napisał: Fallen_Angel
 Westworld *2016* [SE
Napisał: jan_szyszka
 Gnijący Kapturek - L
Napisał: mina
 Cicha woda - Good Ki
Napisał: mina
 Byliśmy żołnierzami
Napisał: KrystynaZgazowni
 Żywioł - Deepwater H
Napisał: KrystynaZgazowni

Oświadczenie: Żaden z plików nie znajduje się na serwerze. Torrenty są własnością użytkowników. Administrator serwisu nie może ponieść konsekwencji za to co użytkownicy wstawiają, lub za to co czynią na stronie. Nie możesz używać tego serwisu do rozpowszechniania lub ściągania materiałów do których nie masz odpowiednich praw lub licencji. Użytkownicy odpowiedzialni są za przestrzeganie tych zasad.


Copyright © 2016 explosion24.pl

Statystyki

Posiadamy: 7534 użytkowników.
Wstawiono: 5364 torrentów.
Dziś dodano: 1 torrentów.

Czas ładowania: 0.0745 sekundy.

[ Script Execution time: 0.0746 sec. ] - [ GZIP: enabled ]
BtiTracker (1.4.8) by Btiteam
Modyfikacje by [ L ]